那种下沉的感觉 That.Sinking.Feeling.1979.1080p.BluRay.x264-PHOBOS 7.65GB

发布人: iRobot  银河系工友
类型:电影  1080P电影
[其他][欧美][喜剧]
大小:7.65 GB
资源得分:暂无评分  / 该工友平均得分:9.2  
 
 
 

帖子完整标题:那种下沉的感觉 That.Sinking.Feeling.1979.1080p.BluRay.x264-PHOBOS 7.65GB




◎译  名 那种下沉的感觉
◎片  名 That Sinking Feeling
◎年  代 1980
◎产  地 英国
◎类  别 喜剧
◎语  言 英语
◎上映日期 1984-02-15
◎IMDb评分 6.8/10 from 828 users
◎IMDb链接 http://www.imdb.com/title/tt0080012
◎豆瓣评分 0/10 from 0 users
◎豆瓣链接 https://movie.douban.com/subject/2969798/
◎片  长 93 分钟
◎导  演 Bill Forsyth
◎编  剧 Bill Forsyth
◎主  演 Tom Mannion
      Eddie Burt
      Richard Demarco


◎标  签 英国 | Glasgow | 1980s | gay | Bill·Forsyth | Bill_Forsyth | 英国电影 | 比尔·福塞斯

◎简  介

  Ronnie, Wal, Andy and Vic are four bored, unemployed teens in dreary, rainy Glasgow. Ronnie comes up with a great idea. He has noticed that stainless steel sinks are worth a lot of money and comes up with a complicated scheme: to steal sinks from a warehouse dressed as girls and using a stop-motion-potion.
  Written by Mattias Thuresson {[email protected]}
Video
ID : 1
Format : AVC
Format/Info : Advanced Video Codec
Format profile : [email protected]
Format settings : CABAC / 5 Ref Frames
Format settings, CABAC : Yes
Format settings, Reference frames : 5 frames
Codec ID : V_MPEG4/ISO/AVC
Duration : 1 h 30 min
Bit rate : 11.4 Mb/s
Width : 1 440 pixels
Height : 1 080 pixels
Display aspect ratio : 4:3
Frame rate mode : Constant
Frame rate : 24.000 FPS
Color space : YUV
Chroma subsampling : 4:2:0
Bit depth : 8 bits
Scan type : Progressive
Bits/(Pixel*Frame) : 0.304
Stream size : 7.18 GiB (94%)
Writing library : x264 core 146 r2538M 121396c
Encoding settings : cabac=1 / ref=5 / deblock=1:0:0 / analyse=0x3:0x133 / me=umh / subme=10 / psy=1 / psy_rd=1.00:0.00 / mixed_ref=1 / me_range=24 / chroma_me=1 / trellis=2 / 8x8dct=1 / cqm=0 / deadzone=21,11 / fast_pskip=1 / chroma_qp_offset=-2 / threads=6 / lookahead_threads=1 / sliced_threads=0 / nr=0 / decimate=1 / interlaced=0 / bluray_compat=0 / constrained_intra=0 / bframes=8 / b_pyramid=2 / b_adapt=2 / b_bias=0 / direct=3 / weightb=1 / open_gop=0 / weightp=2 / keyint=250 / keyint_min=24 / scenecut=40 / intra_refresh=0 / rc_lookahead=60 / rc=2pass / mbtree=1 / bitrate=11357 / ratetol=1.0 / qcomp=0.60 / qpmin=0 / qpmax=69 / qpstep=4 / cplxblur=20.0 / qblur=0.5 / ip_ratio=1.40 / aq=1:1.00
Default : Yes
Forced : No

Audio
ID : 2
Format : FLAC
Format/Info : Free Lossless Audio Codec
Codec ID : A_FLAC
Duration : 1 h 30 min
Bit rate mode : Variable
Bit rate : 750 kb/s
Channel(s) : 1 channel
Channel layout : C
Sampling rate : 48.0 kHz
Frame rate : 11.719 FPS (4096 SPF)
Bit depth : 24 bits
Compression mode : Lossless
Stream size : 485 MiB (6%)
Writing library : libFLAC 1.2.1 (UTC 2007-09-17)
Language : English
Default : Yes
Forced : No

Text #1
ID : 3
Format : UTF-8
Codec ID : S_TEXT/UTF8
Codec ID/Info : UTF-8 Plain Text
Duration : 1 h 26 min
Bit rate : 42 b/s
Count of elements : 731
Stream size : 26.8 KiB (0%)
Language : English
Default : No
Forced : No

Text #2
ID : 4
Format : UTF-8
Codec ID : S_TEXT/UTF8
Codec ID/Info : UTF-8 Plain Text
Duration : 1 h 27 min
Bit rate : 43 b/s
Count of elements : 791
Stream size : 27.9 KiB (0%)
Title : SDH
Language : English
Default : No
Forced : No

Menu
00:00:00.000 : en:00:00:00.000
00:10:00.167 : en:00:10:00.167
00:15:58.792 : en:00:15:58.792
00:26:17.042 : en:00:26:17.042
00:33:23.667 : en:00:33:23.667
00:37:11.083 : en:00:37:11.083
00:45:47.958 : en:00:45:47.958
00:51:11.083 : en:00:51:11.083
01:00:16.000 : en:01:00:16.000
01:11:30.792 : en:01:11:30.792
01:17:07.042 : en:01:17:07.042
01:22:15.125 : en:01:22:15.125





部分内容需要登录后才能查看。登录












我是机器人,给我留言也不会回复,谢谢.......




还没有人发表评论哦~您要说点什么吗?

快捷评论:

 
 登录后可评论资源 ^0^ 点我登录