金笼 The.Golden.Dream.2013.1080p.BluRay.x264-PHOBOS 9.83GB

发布人: iRobot  银河系工友
类型:电影  1080P电影
[2013][其他][剧情]
大小:9.83 GB
资源得分:暂无评分  / 该工友平均得分:9.2  
 
 
 

帖子完整标题:金笼 The.Golden.Dream.2013.1080p.BluRay.x264-PHOBOS 9.83GB




◎译  名 金笼 / The Golden Dream / 我要去美国(台)
◎片  名 La jaula de oro
◎年  代 2013
◎产  地 墨西哥
◎类  别 剧情
◎语  言 西班牙语
◎上映日期 2013-05-22(戛纳电影节)
◎IMDb评分 7.7/10 from 4106 users
◎IMDb链接 http://www.imdb.com/title/tt2042583
◎豆瓣评分 7.4/10 from 423 users
◎豆瓣链接 https://movie.douban.com/subject/24289250/
◎片  长 110分钟
◎导  演 Diego Quemada-Diez
◎编  剧 Diego Quemada-Diez / Lucia Carreras / Gibrán Portela
◎主  演 Karen Martínez
      Rodolfo Dominguez
      Brandon López
      Carlos Chajon


◎标  签 墨西哥 | 剧情 | 墨西哥电影 | 2013 | 人性 | 社会 | 第66届戛纳电影节 | 迪亚哥·奎曼达-迪亚兹

◎简  介

  15岁的Juan(Brandon López 饰)、Sara(Karen Martínez 饰)和 Samuel(Carlos Chajon 饰)逃离危地马拉,试图前往美国。当他们穿越墨西哥时,他们遇到了不会说一句西班牙语的印第安偷渡土著Chauk(Rodolfo Dominguez 饰)这几位少年憧憬在墨西哥边境的那一头过上更好的生活,但很快他们就发现事实并非如此。

◎获奖情况

  第66届戛纳电影节(2013)
  金摄影机奖(导演处女作奖)(提名) 迪亚哥·奎曼达-迪亚兹
  一种关注单元 一种关注大奖(提名) 迪亚哥·奎曼达-迪亚兹
  一种关注单元 一种人才奖

  第28届西班牙戈雅奖(2014)
  最佳伊比利亚美洲电影(提名) 迪亚哥·奎曼达-迪亚兹

  第18届釜山国际电影节(2013)
  未来景象奖(提名) 迪亚哥·奎曼达-迪亚兹
Video
ID : 1
Format : AVC
Format/Info : Advanced Video Codec
Format profile : [email protected]
Format settings : CABAC / 5 Ref Frames
Format settings, CABAC : Yes
Format settings, Reference frames : 5 frames
Codec ID : V_MPEG4/ISO/AVC
Duration : 1 h 48 min
Bit rate : 12.6 Mb/s
Width : 1 920 pixels
Height : 808 pixels
Display aspect ratio : 2.40:1
Frame rate mode : Constant
Frame rate : 23.976 (24000/1001) FPS
Color space : YUV
Chroma subsampling : 4:2:0
Bit depth : 8 bits
Scan type : Progressive
Bits/(Pixel*Frame) : 0.338
Stream size : 9.49 GiB (97%)
Writing library : x264 core 146 r2538M 121396c
Encoding settings : cabac=1 / ref=5 / deblock=1:0:0 / analyse=0x3:0x133 / me=umh / subme=10 / psy=1 / psy_rd=1.00:0.00 / mixed_ref=1 / me_range=24 / chroma_me=1 / trellis=2 / 8x8dct=1 / cqm=0 / deadzone=21,11 / fast_pskip=1 / chroma_qp_offset=-2 / threads=6 / lookahead_threads=1 / sliced_threads=0 / nr=0 / decimate=1 / interlaced=0 / bluray_compat=0 / constrained_intra=0 / bframes=8 / b_pyramid=2 / b_adapt=2 / b_bias=0 / direct=3 / weightb=1 / open_gop=0 / weightp=2 / keyint=250 / keyint_min=23 / scenecut=40 / intra_refresh=0 / rc_lookahead=60 / rc=2pass / mbtree=1 / bitrate=12572 / ratetol=1.0 / qcomp=0.60 / qpmin=0 / qpmax=69 / qpstep=4 / cplxblur=20.0 / qblur=0.5 / ip_ratio=1.40 / aq=1:1.00
Default : Yes
Forced : No

Audio
ID : 2
Format : AC-3
Format/Info : Audio Coding 3
Commercial name : Dolby Digital
Codec ID : A_AC3
Duration : 1 h 48 min
Bit rate mode : Constant
Bit rate : 448 kb/s
Channel(s) : 6 channels
Channel layout : L R C LFE Ls Rs
Sampling rate : 48.0 kHz
Frame rate : 31.250 FPS (1536 SPF)
Bit depth : 16 bits
Compression mode : Lossy
Stream size : 347 MiB (3%)
Language : Spanish
Service kind : Complete Main
Default : Yes
Forced : No

Text
ID : 3
Format : UTF-8
Codec ID : S_TEXT/UTF8
Codec ID/Info : UTF-8 Plain Text
Duration : 1 h 34 min
Bit rate : 17 b/s
Count of elements : 499
Stream size : 12.5 KiB (0%)
Language : English
Default : Yes
Forced : No

Menu
00:00:00.000 : en:00:00:00.000
00:12:59.862 : en:00:12:59.862
00:26:05.355 : en:00:26:05.355
00:37:46.931 : en:00:37:46.931
00:50:13.719 : en:00:50:13.719
01:01:16.047 : en:01:01:16.047
01:14:31.092 : en:01:14:31.092
01:25:41.136 : en:01:25:41.136
01:42:22.845 : en:01:42:22.845





部分内容需要登录后才能查看。登录












我是机器人,给我留言也不会回复,谢谢.......




还没有人发表评论哦~您要说点什么吗?

快捷评论:

 
 登录后可评论资源 ^0^ 点我登录