地下世界/下层社会 Underworld.1927.1080p.BluRay.x264.DTS-FGT 7.41GB

发布人: iRobot  银河系工友
类型:电影  1080P电影
[其他][欧美][剧情]
大小:7.84 GB
资源得分:暂无评分  / 该工友平均得分:9.2  
 
 
 

帖子完整标题:地下世界/下层社会 Underworld.1927.1080p.BluRay.x264.DTS-FGT 7.41GB




◎译  名 地下世界 / 下层社会 / 帑暗之街 / 黑社会
◎片  名 Underworld
◎年  代 1927
◎产  地 美国
◎类  别 剧情 / 犯罪
◎语  言 无对白
◎上映日期 1927-08-20
◎IMDb评分 7.6/10 from 2264 users
◎IMDb链接 http://www.imdb.com/title/tt0018526
◎豆瓣评分 7.9/10 from 316 users
◎豆瓣链接 https://movie.douban.com/subject/1303347/
◎片  长 80 分钟
◎导  演 Josef von Sternberg
◎编  剧 Charles Furthman / Robert N. Lee
◎主  演 George Bancroft
      Evelyn Brent
      Clive Brook
      Fred Kohler
      Helen Lynch


◎标  签 美国 | 默片 | 约瑟夫·冯·斯登堡 | 犯罪 | 1927 | 1920s | CC | 美国电影

◎简  介

  依据1922年的凶杀案改编,描写贩卖私酒的匪帮和警方角力的故事。影史第一次以盗匪当主角,运用背面打光和烟雾,颇具艺术风格,广受欢迎,也预示40年代黑色电影的来临。

◎获奖情况

  第1届奥斯卡金像奖(1929)
  最佳原创故事 本·赫克特
Video
ID : 1
Format : AVC
Format/Info : Advanced Video Codec
Format profile : [email protected]
Format settings : CABAC / 4 Ref Frames
Format settings, CABAC : Yes
Format settings, Reference frames : 4 frames
Codec ID : V_MPEG4/ISO/AVC
Duration : 1 h 21 min
Bit rate : 11.5 Mb/s
Width : 1 440 pixels
Height : 1 080 pixels
Display aspect ratio : 4:3
Frame rate mode : Constant
Frame rate : 23.976 (24000/1001) FPS
Color space : YUV
Chroma subsampling : 4:2:0
Bit depth : 8 bits
Scan type : Progressive
Bits/(Pixel*Frame) : 0.308
Stream size : 6.55 GiB (88%)
Title : Underworld.1927.1080p.BluRay.x264.DTS-FGT
Writing library : x264 core 148 r2795M aaa9aa8
Encoding settings : cabac=1 / ref=4 / deblock=1:-2:-2 / analyse=0x3:0x113 / me=umh / subme=9 / psy=1 / psy_rd=1.00:0.15 / mixed_ref=1 / me_range=16 / chroma_me=1 / trellis=2 / 8x8dct=1 / cqm=0 / deadzone=21,11 / fast_pskip=1 / chroma_qp_offset=-3 / threads=24 / lookahead_threads=3 / sliced_threads=0 / nr=0 / decimate=1 / interlaced=0 / bluray_compat=0 / constrained_intra=0 / bframes=3 / b_pyramid=2 / b_adapt=1 / b_bias=0 / direct=3 / weightb=1 / open_gop=0 / weightp=2 / keyint=250 / keyint_min=25 / scenecut=40 / intra_refresh=0 / rc_lookahead=50 / rc=2pass / mbtree=1 / bitrate=11500 / ratetol=1.0 / qcomp=0.60 / qpmin=0 / qpmax=69 / qpstep=4 / cplxblur=20.0 / qblur=0.5 / vbv_maxrate=31250 / vbv_bufsize=31250 / nal_hrd=none / filler=0 / ip_ratio=1.40 / aq=1:1.00
Language : English
Default : Yes
Forced : No

Audio
ID : 2
Format : DTS
Format/Info : Digital Theater Systems
Codec ID : A_DTS
Duration : 1 h 21 min
Bit rate mode : Constant
Bit rate : 1 509 kb/s
Channel(s) : 2 channels
Channel layout : L R
Sampling rate : 48.0 kHz
Frame rate : 93.750 FPS (512 SPF)
Bit depth : 16 bits
Compression mode : Lossy
Stream size : 880 MiB (12%)
Title : Underworld.1927.1080p.BluRay.x264.DTS-FGT
Language : English
Default : Yes
Forced : No

Menu
00:00:00.000 : en:Chapter 01
00:01:21.081 : en:Chapter 02
00:04:25.265 : en:Chapter 03
00:14:21.569 : en:Chapter 04
00:16:44.420 : en:Chapter 05
00:18:44.123 : en:Chapter 06
00:25:06.505 : en:Chapter 07
00:26:52.694 : en:Chapter 08
00:31:48.698 : en:Chapter 09
00:39:38.751 : en:Chapter 10
00:44:41.053 : en:Chapter 11
00:48:27.779 : en:Chapter 12
00:56:54.994 : en:Chapter 13
01:03:47.198 : en:Chapter 14
01:09:40.134 : en:Chapter 15
01:14:27.504 : en:Chapter 16





部分内容需要登录后才能查看。登录












我是机器人,给我留言也不会回复,谢谢.......




还没有人发表评论哦~您要说点什么吗?

快捷评论:

 
 登录后可评论资源 ^0^ 点我登录