疾速备战 John.Wick.Chapter.3.Parabellum.2019.720p.BluRay.x264.DD5.1-HDC 5.61 GiB

发布人: 匿名  
类型:电影  720P电影
[2019][欧美][动作]
大小:5.61 GB
资源得分:暂无评分  / 该工友平均得分:  
 
 
 




◎译  名 疾速备战/疾速追杀3/疾速逃亡/极速追杀:第三章/约翰·威克3/杀神3(港)/捍卫任务3:全面开战(台)  
◎片  名 John Wick: Chapter 3 - Parabellum/John Wick 3 / Alpha Cop / John Wick: Chapter 3 / John Wick 3: Parabellum
◎年  代 2019
◎国  家 美国
◎类  别 动作/犯罪/惊悚  
◎语  言 意大利语
◎IMDb评分 8.0/10 from 104,198 users
◎IMDB链接 https://www.imdb.com/title/tt6146586/
◎片  长 2 h 10 min
◎导  演 查德·斯塔赫斯基 Chad Stahelski
◎主  演 基努·里维斯 Keanu Reeves
       哈莉·贝瑞 Halle Berry
       劳伦斯·菲什伯恩 Laurence Fishburne
       安杰丽卡·休斯顿 Anjelica Huston


◎简  介 

  因杀害杀手组织“高桌”(High Table)成员,约翰·威克被对方以1400万奖金悬赏追杀。全纽约的杀手蜂拥而至。
[code]Video
ID : 1
Format : AVC
Format/Info : Advanced Video Codec
Format profile : [email protected]
Format settings : CABAC / 12 Ref Frames
Format settings, CABAC : Yes
Format settings, Reference frames : 12 frames
Codec ID : V_MPEG4/ISO/AVC
Duration : 2 h 10 min
Bit rate : 5 500 kb/s
Width : 1 280 pixels
Height : 534 pixels
Display aspect ratio : 2.40:1
Frame rate mode : Constant
Frame rate : 23.976 (24000/1001) FPS
Color space : YUV
Chroma subsampling : 4:2:0
Bit depth : 8 bits
Scan type : Progressive
Bits/(Pixel*Frame) : 0.336
Stream size : 5.02 GiB (90%)
Writing library : x264 core 148 r2665kMod a01e339
Encoding settings : cabac=1 / ref=12 / deblock=1:-3:-3 / analyse=0x3:0x133 / me=umh / subme=11 / psy=1 / fade_compensate=0.00 / psy_rd=1.05:0.00 / mixed_ref=1 / me_range=32 / chroma_me=1 / trellis=2 / 8x8dct=1 / cqm=0 / deadzone=21,11 / fast_pskip=0 / chroma_qp_offset=-2 / threads=17 / lookahead_threads=2 / sliced_threads=0 / nr=0 / decimate=0 / interlaced=0 / bluray_compat=0 / constrained_intra=0 / fgo=0 / bframes=8 / b_pyramid=2 / b_adapt=2 / b_bias=0 / direct=3 / weightb=1 / open_gop=0 / weightp=2 / keyint=240 / keyint_min=24 / scenecut=40 / intra_refresh=0 / rc=2pass / mbtree=0 / bitrate=5500 / ratetol=1.0 / qcomp=0.70 / qpmin=0 / qpmax=69 / qpstep=4 / cplxblur=20.0 / qblur=0.5 / ip_ratio=1.20 / pb_ratio=1.20 / aq=3:0.85
Language : English
Default : Yes
Forced : No

Audio
ID : 2
Format : AC-3
Format/Info : Audio Coding 3
Commercial name : Dolby Digital
Codec ID : A_AC3
Duration : 2 h 10 min
Bit rate mode : Constant
Bit rate : 640 kb/s
Channel(s) : 6 channels
Channel layout : L R C LFE Ls Rs
Sampling rate : 48.0 kHz
Frame rate : 31.250 FPS (1536 SPF)
Bit depth : 16 bits
Compression mode : Lossy
Stream size : 599 MiB (10%)
Language : English
Service kind : Complete Main
Default : Yes
Forced : No

Text
ID : 3
Format : UTF-8
Codec ID : S_TEXT/UTF8
Codec ID/Info : UTF-8 Plain Text
Duration : 1 h 59 min
Bit rate : 24 b/s
Count of elements : 683
Stream size : 21.1 KiB (0%)
Language : English
Default : Yes
Forced : No

Menu
00:00:00.000 : en:00:00:00.000
00:08:46.860 : en:00:08:46.860
00:14:06.763 : en:00:14:06.763
00:22:40.401 : en:00:22:40.401
00:31:26.301 : en:00:31:26.301
00:37:51.311 : en:00:37:51.311
00:47:43.319 : en:00:47:43.319
00:57:09.176 : en:00:57:09.176
01:02:56.439 : en:01:02:56.439
01:14:27.671 : en:01:14:27.671
01:20:36.665 : en:01:20:36.665
01:28:48.365 : en:01:28:48.365
01:33:51.793 : en:01:33:51.793
01:41:31.794 : en:01:41:31.794
01:53:44.651 : en:01:53:44.651
01:59:51.434 : en:01:59:51.434
[/code]






部分内容需要登录后才能查看。登录












电影,电视剧,字幕下载软件地址:http://www.banyungong.org/magnetm/706d600a73684616a3d4d3145dc4ec04.html




还没有人发表评论哦~您要说点什么吗?

快捷评论:

 
 登录后可评论资源 ^0^ 点我登录